free web stats
 

oral

Very Sexy Homemade Desi Indian Aunty Mouth Fucked By Husband

Very Sexy Homemade Desi Aunty Mouth Fucked By Husband.avi

Screens:
image

image

Video:
Format                                   : AVI
Format/Info                              : Audio Video Interleave
File size                                : 6.68 MiB
Duration                                 : 1mn 31s
Overall bit rate                         : 614 Kbps
Writing application                      : Lavf55.44.100

Video
ID                                       : 0
Format                                   : MPEG-4 Visual
Format profile                           : Simple@L1
Format settings, BVOP                    : No
Format settings, QPel                    : No
Format settings, GMC                     : No warppoints
Format settings, Matrix                  : Default (H.263)
Codec ID                                 : XVID
Codec ID/Hint                            : XviD
Duration                                 : 1mn 31s
Bit rate                                 : 473 Kbps
Width                                    : 320 pixels
Height                                   : 240 pixels
Display aspect ratio                     : 4:3
Frame rate                               : 25.000 fps
Color space                              : YUV
Chroma subsampling                       : 4:2:0
Bit depth                                : 8 bits
Scan type                                : Progressive
Compression mode                         : Lossy
Bits/(Pixel*Frame)                       : 0.246
Stream size                              : 5.14 MiB (77%)
Writing library                          : Lavc55.67.100

Audio
ID                                       : 1
Format                                   : MPEG Audio
Format version                           : Version 1
Format profile                           : Layer 3
Mode                                     : Joint stereo
Mode extension                           : MS Stereo
Codec ID                                 : 55
Codec ID/Hint                            : MP3
Duration                                 : 1mn 31s
Bit rate mode                            : Constant
Bit rate                                 : 128 Kbps
Channel(s)                               : 2 channels
Sampling rate                            : 48.0 KHz
Compression mode                         : Lossy
Stream size                              : 1.39 MiB (21%)
Alignment                                : Aligned on interleaves
Interleave, duration                     : 24 ms (0.60 video frame)
Interleave, preload duration             : 96 ms

Be the first to comment - What do you think?
Posted by Amateur Hub - October 3, 2014 at 22:51

Categories: amateur, oral, torrent   Tags:

She likes to suck a dick

image She likes to suck a dick

Be the first to comment - What do you think?
Posted by Amateur Hub - May 3, 2014 at 10:37

Categories: amateur, oral   Tags:

Doing hi[m] a [f]avor

Be the first to comment - What do you think?
Posted by Amateur Hub - September 14, 2013 at 20:24

Categories: amateur, oral   Tags:

Next Page »